<?xml version="1.0" standalone="no"?>
<!DOCTYPE svg PUBLIC "-//W3C//DTD SVG 1.1//EN" "http://www.w3.org/Graphics/SVG/1.1/DTD/svg11.dtd" >
<svg xmlns="http://www.w3.org/2000/svg">
<metadata>Generated by IcoMoon</metadata>
<defs>
<font id="icomoon" horiz-adv-x="1024">
<font-face units-per-em="1024" ascent="960" descent="-64" />
<missing-glyph horiz-adv-x="1024" />
<glyph unicode="&#x20;" horiz-adv-x="512" d="" />
<glyph unicode="&#xe900;" glyph-name="menu-1" d="M982.636 489.361h-941.272c-22.844 0-41.364-18.518-41.364-41.364s18.52-41.364 41.364-41.364h941.272c22.847 0 41.364 18.518 41.364 41.364 0 22.844-18.516 41.364-41.364 41.364zM982.636 803.125h-941.272c-22.844 0-41.364-18.52-41.364-41.364s18.52-41.364 41.364-41.364h941.272c22.847 0 41.364 18.52 41.364 41.364s-18.516 41.364-41.364 41.364zM982.636 175.61h-941.272c-22.844 0-41.364-18.516-41.364-41.364s18.52-41.364 41.364-41.364h941.272c22.847 0 41.364 18.516 41.364 41.364s-18.516 41.364-41.364 41.364z" />
<glyph unicode="&#xe901;" glyph-name="menu-2" d="M982.637 489.363h-941.273c-22.844 0-41.364-18.517-41.364-41.363 0-22.849 18.52-41.366 41.364-41.366h941.273c22.845 0 41.363 18.517 41.363 41.366 0 22.842-18.517 41.363-41.363 41.363zM982.637 803.121h-941.273c-22.844 0-41.364-18.52-41.364-41.364s18.52-41.364 41.364-41.364h941.273c22.845 0 41.363 18.52 41.363 41.364s-18.517 41.364-41.363 41.364zM982.637 175.609h-941.273c-22.844 0-41.364-18.517-41.364-41.366 0-22.845 18.52-41.363 41.364-41.363h941.273c22.845 0 41.363 18.517 41.363 41.363 0 22.849-18.517 41.366-41.363 41.366z" />
<glyph unicode="&#xe902;" glyph-name="shopping-cart" d="M776.033 199.1c-65.53 0-119.569-52.89-119.569-119.569 0-65.53 52.89-119.569 119.569-119.569 65.53 0 119.569 52.89 119.569 119.569-1.155 65.53-54.039 119.569-119.569 119.569zM986.425 769.338c-2.298 0-5.746 1.15-9.193 1.15h-724.302l-11.497 77.029c-6.898 50.586-50.586 88.525-102.321 88.525h-93.124c-25.293 0-45.987-20.694-45.987-45.987s20.694-45.987 45.987-45.987h93.124c5.748 0 10.347-4.599 11.497-10.348l71.28-485.167c9.198-60.934 62.083-106.917 124.166-106.917h478.266c59.785 0 111.519 42.536 124.166 101.171l74.729 373.646c4.602 24.144-11.497 48.287-36.79 52.886zM482.877 85.276c-2.299 63.238-55.185 113.823-118.417 113.823-66.682-3.453-117.268-58.635-114.968-124.166 2.299-63.232 54.035-113.823 117.268-113.823h2.299c65.532 3.453 117.268 58.635 113.819 124.166z" />
<glyph unicode="&#xe903;" glyph-name="user" d="M598.574 449h-173.147c-170.294 0-308.836-138.546-308.836-308.837v-204.163h790.822v204.163c0 170.291-138.542 308.837-308.838 308.837zM511.999 960c-131.686 0-238.818-107.134-238.818-238.82 0-131.684 107.132-238.818 238.818-238.818 131.688 0 238.815 107.134 238.815 238.82 0 131.684-107.127 238.818-238.815 238.818z" />
<glyph unicode="&#xe904;" glyph-name="search" d="M1015.142-11.75l-248.901 248.847c69.213 79.31 107.299 181.030 107.188 286.283 0 240.902-195.872 436.62-436.713 436.62s-436.716-195.917-436.716-436.62c0-240.702 195.875-436.622 436.716-436.622 105.286-0.102 207.037 37.972 286.375 107.17l248.906-248.738c5.717-5.743 13.466-9.003 21.572-9.079 4.019-0.009 8.004 0.785 11.716 2.347 3.703 1.562 7.057 3.849 9.856 6.733 5.675 5.751 8.858 13.508 8.858 21.589s-3.183 15.829-8.858 21.581v-0.111zM61.090 523.38c0 207.184 168.509 375.316 375.399 375.316s375.399-168.472 375.399-375.316c0-206.844-168.282-375.543-375.399-375.543s-375.399 168.472-375.399 375.543z" />
<glyph unicode="&#xe905;" glyph-name="down-arrow" d="M551.956 163.54l455.685 455.693c10.547 10.54 16.358 24.608 16.358 39.611s-5.811 29.071-16.358 39.611l-33.551 33.558c-21.861 21.837-57.393 21.837-79.222 0l-382.656-382.657-383.081 383.081c-10.548 10.54-24.609 16.359-39.603 16.359-15.010 0-29.071-5.819-39.628-16.359l-33.542-33.558c-10.548-10.548-16.359-24.609-16.359-39.612s5.811-29.071 16.359-39.611l456.101-456.116c10.582-10.565 24.709-16.367 39.727-16.334 15.077-0.033 29.197 5.769 39.77 16.334z" />
<glyph unicode="&#xe906;" glyph-name="right-arrow" d="M796.457 487.956l-455.693 455.685c-10.539 10.548-24.609 16.359-39.611 16.359s-29.071-5.811-39.611-16.359l-33.559-33.55c-21.837-21.862-21.837-57.394 0-79.222l382.656-382.657-383.081-383.080c-10.54-10.548-16.359-24.61-16.359-39.603 0-15.010 5.819-29.071 16.359-39.628l33.559-33.542c10.548-10.547 24.609-16.358 39.611-16.358s29.071 5.811 39.611 16.358l456.117 456.101c10.565 10.582 16.368 24.709 16.334 39.728 0.034 15.076-5.769 29.196-16.334 39.769z" />
<glyph unicode="&#xe907;" glyph-name="phone" d="M1021.776 166.588c-2.896 8.727-21.322 21.584-55.268 38.537-9.193 5.342-22.3 12.607-39.253 21.823-16.97 9.21-32.375 17.704-46.182 25.458-13.835 7.76-26.8 15.275-38.912 22.534-1.934 1.456-7.993 5.695-18.176 12.737-10.194 7.026-18.785 12.242-25.833 15.639-7.026 3.385-13.938 5.086-20.725 5.086-9.7 0-21.806-6.912-36.346-20.725-14.541-13.824-27.876-28.843-39.993-45.102-12.117-16.247-24.969-31.266-38.531-45.084-13.579-13.824-24.741-20.73-33.456-20.73-4.375 0-9.836 1.217-16.373 3.624-6.537 2.423-11.509 4.5-14.922 6.172-3.385 1.712-9.188 5.092-17.436 10.2-8.26 5.092-12.859 7.885-13.826 8.368-66.421 36.858-123.385 79.041-170.904 126.538-47.504 47.531-89.692 104.488-126.539 170.916-0.484 0.971-3.279 5.579-8.366 13.816-5.094 8.246-8.49 14.056-10.187 17.459-1.696 3.391-3.757 8.363-6.177 14.907s-3.635 11.995-3.635 16.364c0 8.722 6.911 19.879 20.73 33.456 13.817 13.569 28.851 26.423 45.087 38.535 16.249 12.113 31.268 25.45 45.089 39.99 13.817 14.548 20.725 26.662 20.725 36.357 0 6.783-1.696 13.699-5.087 20.727-3.393 7.043-8.604 15.638-15.638 25.824-7.035 10.181-11.277 16.236-12.734 18.185-7.265 12.112-14.771 25.081-22.538 38.899-7.766 13.816-16.244 29.217-25.46 46.185-9.208 16.96-16.476 30.055-21.815 39.266-16.96 33.933-29.806 52.365-38.535 55.263-3.395 1.454-8.49 2.188-15.271 2.188-13.098 0-30.185-2.42-51.274-7.275-21.097-4.848-37.697-9.932-49.82-15.273-24.243-10.176-49.937-39.751-77.091-88.711-24.726-45.566-37.088-90.666-37.088-135.265 0-13.080 0.848-25.807 2.545-38.182 1.696-12.362 4.728-26.303 9.096-41.821 4.361-15.512 7.879-27.036 10.538-34.541 2.662-7.509 7.632-20.962 14.907-40.362 7.265-19.395 11.633-31.268 13.088-35.632 16.967-47.516 37.088-89.936 60.358-127.272 38.286-62.058 90.533-126.189 156.711-192.374 66.181-66.179 130.301-118.42 192.362-156.723 37.33-23.268 79.766-43.383 127.274-60.365 4.369-1.445 16.242-5.803 35.63-13.096 19.393-7.27 32.848-12.242 40.357-14.905 7.515-2.674 19.041-6.19 34.543-10.559 15.531-4.369 29.457-7.401 41.819-9.108 12.373-1.678 25.099-2.537 38.184-2.537 44.595 0 89.702 12.368 135.276 37.092 48.953 27.142 78.518 52.844 88.701 77.102 5.353 12.112 10.428 28.718 15.275 49.812 4.864 21.089 7.276 38.172 7.276 51.268 0.017 6.81-0.717 11.89-2.179 15.314z" />
<glyph unicode="&#xe908;" glyph-name="close" d="M602.561 447.886l402.675 402.675c25.018 24.996 25.018 65.554 0 90.551-25.018 25.018-65.533 25.018-90.551 0l-402.675-402.676-402.696 402.676c-25.018 25.018-65.533 25.018-90.551 0-25.018-24.996-25.018-65.554 0-90.551l402.697-402.675-402.697-402.675c-25.018-24.997-25.018-65.555 0-90.551 12.509-12.488 28.903-18.742 45.275-18.742s32.766 6.254 45.275 18.764l402.696 402.675 402.675-402.675c12.509-12.509 28.904-18.764 45.276-18.764s32.767 6.254 45.275 18.764c25.018 24.996 25.018 65.554 0 90.55l-402.675 402.655z" />
<glyph unicode="&#xe909;" glyph-name="full-arrow" d="M824.889 448l-597.333-492.675v985.347l597.333-492.672z" />
<glyph unicode="&#xe90a;" glyph-name="location" d="M512.002 941.714c-197.187 0-357.609-160.423-357.609-357.607 0-244.713 320.025-603.965 333.651-619.143 12.798-14.248 35.142-14.226 47.917 0 13.625 15.177 333.651 374.43 333.651 619.143-0.004 197.184-160.425 357.607-357.609 357.607zM512.002 404.185c-99.21 0-179.92 80.713-179.92 179.923s80.712 179.92 179.92 179.92c99.207 0 179.918-80.713 179.918-179.923s-80.711-179.92-179.918-179.92z" />
<glyph unicode="&#xe90b;" glyph-name="mail" d="M38.895 753.627c135.521-114.771 373.318-316.689 443.208-379.647 9.383-8.498 19.446-12.818 29.893-12.818 10.426 0 20.471 4.28 29.833 12.736 69.951 63.020 307.746 264.957 443.273 379.728 8.433 7.132 9.721 19.668 2.889 28.387-15.792 20.148-39.336 31.7-64.571 31.7h-822.852c-25.232 0-48.778-11.552-64.567-31.702-6.831-8.717-5.545-21.253 2.893-28.385zM993.785 691.439c-7.292 3.395-15.872 2.21-21.943-2.974-150.287-127.405-342.099-290.713-402.447-345.092-33.872-30.576-80.881-30.576-114.831 0.040-64.325 57.958-279.724 241.072-402.408 345.054-6.108 5.184-14.705 6.328-21.938 2.974-7.271-3.377-11.932-10.65-11.932-18.665v-517.339c0-45.387 36.903-82.287 82.286-82.287h822.856c45.385 0 82.286 36.901 82.286 82.287v517.339c0 8.015-4.659 15.307-11.93 18.662z" />
<glyph unicode="&#xe90c;" glyph-name="alarm-clock" d="M801.69 133.86c153.726 160.417 148.307 415.082-12.115 568.809-160.417 153.728-415.082 148.304-568.809-12.112-149.119-155.609-149.119-401.089 0-556.698l-104.527-139.343c-12.118-16.163-8.843-39.085 7.315-51.2 16.157-12.123 39.083-8.846 51.201 7.31l101.307 135.105c140.148-102.116 330.179-102.116 470.326 0l101.304-135.105c12.123-16.156 35.044-19.432 51.208-7.31 16.156 12.115 19.432 35.044 7.31 51.2l-104.519 139.343zM547.801 411.447c0-7.914-2.568-15.614-7.315-21.944l-109.718-146.292c-12.119-16.16-35.044-19.435-51.202-7.315s-19.434 35.044-7.314 51.202l102.405 136.527v207.258c0 20.199 16.374 36.573 36.573 36.573s36.573-16.375 36.573-36.573v-219.437h-0.004zM311.375 906.464c-72.307 70.507-188.079 69.048-258.588-3.259-69.247-71.014-69.255-184.286-0.017-255.312 14.283-14.278 37.433-14.278 51.713 0l206.892 206.856c14.278 14.282 14.278 37.432 0 51.715zM969.665 906.464c-71.412 71.388-187.164 71.388-258.572 0-14.278-14.283-14.278-37.433 0-51.713l206.852-206.856c14.289-14.278 37.439-14.278 51.72 0 71.389 71.407 71.389 187.16 0 258.569z" />
<glyph unicode="&#xe90d;" glyph-name="compare-bars" d="M949.453 82.782v663.536c0 20.368-16.503 36.87-36.855 36.87h-184.326c-20.361 0-36.855-16.502-36.855-36.87v-663.536c0-20.369 16.494-36.864 36.855-36.864h184.317c20.361 0 36.864 16.495 36.864 36.864zM378.037 45.918h202.751c20.361 0 36.862 16.486 36.862 36.864v737.267c0 20.368-16.502 36.862-36.862 36.862h-202.751c-20.368 0-36.87-16.494-36.87-36.862v-737.267c0-20.378 16.494-36.864 36.87-36.864zM64.696 562.005c-20.368 0-36.862-16.494-36.862-36.862v-442.361c0-20.369 16.494-36.864 36.862-36.864h184.32c20.368 0 36.863 16.495 36.863 36.864v442.361c0 20.368-16.495 36.862-36.863 36.862h-184.32z" />
<glyph unicode="&#xe90e;" glyph-name="simple-clock" d="M508.261 925.423c-263.697 0-478.242-214.544-478.242-478.241s214.544-478.24 478.242-478.24c263.698 0 478.245 214.542 478.245 478.24s-214.547 478.241-478.245 478.241zM508.261 28.719c-230.743 0-418.461 187.718-418.461 418.462s187.717 418.461 418.461 418.461c230.744 0 418.459-187.717 418.459-418.461s-187.715-418.462-418.459-418.462zM538.146 746.077h-59.78v-311.277l188.097-188.097 42.266 42.267-170.583 170.583v286.524z" />
<glyph unicode="&#xe90f;" glyph-name="direct-download" d="M512.029 277.333c-8.747 0-17.109 3.584-23.125 9.899l-224 234.667c-19.413 20.309-4.992 54.101 23.125 54.101h117.333v245.333c0 29.397 23.936 53.333 53.333 53.333h106.667c29.4 0 53.333-23.936 53.333-53.333v-245.333h117.333c28.12 0 42.542-33.792 23.125-54.101l-223.999-234.667c-6.016-6.315-14.379-9.899-23.125-9.899zM949.333 21.333h-874.667c-41.173 0-74.667 33.496-74.667 74.667v21.333c0 41.176 33.493 74.667 74.667 74.667h874.667c41.17 0 74.667-33.49 74.667-74.667v-21.333c0-41.17-33.496-74.667-74.667-74.667z" />
<glyph unicode="&#xe910;" glyph-name="open-email" d="M671.621 849.96l-108.882 91.456c-14.746 12.39-32.742 18.584-50.734 18.584-17.996 0-35.992-6.194-50.74-18.584l-108.878-91.456h319.234zM92 558.226l407.686-318.503c4.486-3.507 9.172-4.239 12.314-4.239 3.144 0 7.828 0.732 12.314 4.239l407.685 318.503v191.736c0 22.092-17.905 40-39.997 40h-760.002c-22.092 0-39.999-17.908-39.999-40v-191.736zM761.001 510.003c0-16.568-13.435-30-30.003-30h-437.998c-16.568 0-30 13.432-30 30s13.432 30 30 30h437.998c16.568 0 30.003-13.432 30.003-30zM576.998 660.002c16.568 0 30.003-13.432 30.003-30s-13.435-30-30.003-30h-283.998c-16.568 0-30 13.432-30 30s13.432 30 30 30h283.998zM943.995-64.005c8.212 0 16.128 1.244 23.578 3.538l-376.658 270.044c-1.336 0.963-2.545 2.033-3.681 3.159l-25.984-20.301c-14.474-11.305-31.867-16.957-49.254-16.957-17.39 0-34.78 5.652-49.252 16.957l-25.988 20.301c-1.132-1.126-2.34-2.196-3.682-3.159l-376.654-270.044c7.454-2.294 15.37-3.538 23.578-3.538h863.998zM1024 553.962l-387.83-302.995 378.911-271.657c5.688 10.993 8.919 23.465 8.919 36.69v537.962zM387.832 250.967l-387.832 302.995v-537.962c0-13.23 3.232-25.697 8.918-36.69l378.914 271.657z" />
<glyph unicode="&#xe911;" glyph-name="electric-cable" d="M217.149 63.576c-68.266 72.528-110.506 170.238-110.506 277.758v320c0 23.466 19.2 42.666 42.666 42.666s42.666-19.2 42.666-42.666v-308.48c-13.653-36.694-21.333-76.8-21.333-118.187 0-3.84 0-8.106 0.426-11.522 1.706-57.6 18.774-112.208 46.080-159.568zM874.62 650.661c-23.472 0-42.672-19.2-42.672-42.666v-266.667c0-40.533-7.68-79.36-21.76-115.199 0.432 2.559 0.432 5.546 0.432 8.532 0 164.694-133.974 298.667-298.668 298.667s-298.666-133.974-298.666-298.667c0-2.986 0-5.974 0.426-8.532 4.266-160.856 136.534-290.136 298.24-290.136 10.198 0 20.266 0.512 30.208 1.536 209.448 15.536 375.124 190.42 375.124 403.798v266.667c0 23.466-19.2 42.666-42.664 42.666zM490.192 22.608c-107.52 10.664-191.574 101.544-191.574 212.052 0 117.76 95.574 213.334 213.334 213.334s213.334-95.574 213.334-213.334c0-110.508-84.054-201.388-191.574-212.052-7.254-0.856-14.506-1.28-21.76-1.28s-14.506 0.424-21.76 1.28zM949.336 917.339h-149.336c-17.496 0-32-14.507-32-32v-96h213.336v96c0 17.493-14.512 32-32 32zM191.952 960h-85.334c-11.946 0-21.333-9.387-21.333-21.333v-106.667h128v106.667c0 11.947-9.387 21.333-21.334 21.333zM906.62 565.327h-64c-64.724 0-117.334 52.609-117.334 117.334v32c0 17.664 14.335 32 31.999 32h234.664c17.664 0 32-14.336 32-32v-32c0-64.725-52.604-117.334-117.328-117.334zM223.976 618.673h-149.333c-17.664 0-32 14.336-32 32v106.666c0 17.664 14.336 32 32 32h149.333c17.664 0 32-14.336 32-32v-106.666c0-17.664-14.336-32-32-32z" />
<glyph unicode="&#xe912;" glyph-name="double-cards" d="M984.917 778.785l-627.156 132.723c-26.533 5.614-52.833-11.505-58.447-38.039l-11.915-76.57 723.629-153.132 11.916 76.57c5.615 26.524-11.496 52.832-38.028 58.448zM721.176 627.53c-7.325 26.38-34.895 41.973-61.266 34.659l-119.057-33.051-280.67 59.4-30.868-145.848-192.862-53.528c-26.37-7.315-41.963-34.884-34.649-61.256l108.689-391.663c7.325-26.371 34.895-41.974 61.265-34.652l623.456 173.018c26.371 7.325 41.964 34.884 34.649 61.266l-18.657 67.236 69.926-14.783c26.532-5.625 52.832 11.496 58.447 38.028l44.237 209.050-251.863 53.296-10.776 38.829zM793.177 428.469l15.418 72.875c2.314 10.909 13.135 17.947 24.044 15.643l72.871-15.428c10.923-2.318 17.961-13.124 15.657-24.044l-15.421-72.875c-2.314-10.909-13.131-17.958-24.044-15.643l-72.871 15.418c-10.933 2.324-17.971 13.145-15.654 24.054zM47.302 450.075l623.435 173.008c0.799 0.216 1.597 0.318 2.379 0.318 3.512 0 7.714-2.306 8.943-6.722l5.144-18.522 16.114-58.068-641.16-177.923-21.258 76.582c-1.332 4.806 1.6 9.998 6.403 11.329zM790.767 225.038c0.819-2.973-0.041-5.431-0.911-6.97-0.86-1.536-2.519-3.543-5.492-4.362l-623.444-173.015c-0.788-0.218-1.598-0.331-2.377-0.331-3.514 0-7.715 2.318-8.944 6.735l-63.395 228.451 641.158 177.934 63.406-228.441zM261.645 209.401c-2.992 10.759-14.221 17.108-24.978 14.128l-72.81-20.214c-10.747-2.98-17.109-14.22-14.117-24.975l20.202-72.8c2.992-10.759 14.221-17.111 24.978-14.118l72.81 20.2c10.757 2.983 17.109 14.223 14.127 24.979l-20.212 72.8z" />
<glyph unicode="&#xe913;" glyph-name="filter" d="M390.025 476.12c10.746-11.694 16.646-26.97 16.646-42.772v-465.654c0-28.021 33.818-42.247 53.834-22.543l129.899 148.86c17.382 20.86 26.97 31.181 26.97 51.829v287.402c0 15.803 6.005 31.078 16.645 42.774l372.735 404.443c27.919 30.341 6.422 79.541-34.875 79.541h-919.716c-41.298 0-62.895-49.094-34.871-79.541l372.734-404.34z" />
<glyph unicode="&#xe914;" glyph-name="review-start" d="M1021.321 567.236c-6.741 20.735-25.134 35.415-46.802 37.376l-295.6 26.836-116.822 273.505c-8.625 20.094-28.25 33.063-50.095 33.063s-41.477-12.969-50.047-33.063l-116.822-273.505-295.645-26.836c-21.672-2-40.024-16.68-46.805-37.376-6.742-20.734-0.516-43.477 15.875-57.852l223.449-195.932-65.884-290.179c-4.82-21.333 3.461-43.401 21.164-56.195 9.516-6.918 20.696-10.371 31.915-10.371 9.641 0 19.289 2.566 27.907 7.72l254.895 152.411 254.85-152.411c18.694-11.173 42.2-10.149 59.864 2.651 17.704 12.794 25.987 34.862 21.168 56.195l-65.883 290.179 223.448 195.932c16.384 14.375 22.613 37.071 15.872 57.852z" />
<glyph unicode="&#xe915;" glyph-name="check-arrow" d="M365.083 105.416c-12.275 0-24.549 4.71-33.918 14.057l-293.822 293.844c-18.761 18.761-18.761 49.075 0 67.836s49.075 18.761 67.836 0l259.904-259.904 553.747 553.726c18.762 18.761 49.078 18.761 67.84 0 18.758-18.761 18.758-49.076 0-67.836l-587.669-587.666c-9.347-9.346-21.644-14.057-33.918-14.057z" />
<glyph unicode="&#xe916;" glyph-name="left-arrow" d="M233.381 482.332l467.377 391.498c10.81 9.062 25.24 14.054 40.627 14.054s29.817-4.992 40.627-14.054l34.419-28.825c22.396-18.783 22.396-49.309 0-68.063l-392.468-328.756 392.904-329.119c10.81-9.066 16.778-21.142 16.778-34.028 0-12.895-5.968-24.97-16.778-34.044l-34.419-28.814c-10.819-9.066-25.24-14.060-40.627-14.060s-29.817 4.994-40.627 14.060l-467.813 391.853c-10.835 9.091-16.787 21.228-16.753 34.131-0.034 12.953 5.917 25.084 16.753 34.167z" />
<glyph unicode="&#xe917;" glyph-name="right_arrow2" d="M770.724 510.435l-433.994 433.985c-10.037 10.046-23.437 15.58-37.724 15.58s-27.687-5.534-37.725-15.58l-31.961-31.953c-20.797-20.821-20.797-54.66 0-75.45l364.435-364.434-364.839-364.837c-10.038-10.050-15.58-23.442-15.58-37.72 0-14.292 5.542-27.685 15.58-37.742l31.961-31.941c10.045-10.050 23.437-15.579 37.725-15.579s27.687 5.53 37.725 15.579l434.398 434.38c10.062 10.077 15.587 23.532 15.556 37.835 0.031 14.359-5.494 27.806-15.556 37.876z" />
<glyph unicode="&#xe918;" glyph-name="shipping-truck" d="M997.601 208.292c2.701 13.88 1.815 29.678-2.749 46.118-29.929 107.799-119.475 328.515-193.892 419.418-19.528 23.853-57.144 21.792-78.956 0-9.595-9.6-14.925-21.827-16.064-34.365-5.842 5.404-13.251 9.134-21.427 10.202 0 0-188.739 23.519-191.027 23.222h-85.832c-27.968 0-36.152-16.22-36.152-36.155v-275.53h-62.991v295.473c0 14.618-11.896 26.512-26.514 26.512h-255.485c-14.618 0-26.512-11.895-26.512-26.512 0 0 0.092-414.902 0.092-441.741 0-30.828 24.991-55.818 55.818-55.818h54.774c-2.83-11.523-4.36-23.552-4.36-35.935 0-83.162 67.669-150.815 150.842-150.815 83.169 0 150.833 67.653 150.833 150.815 0 12.383-1.533 24.412-4.36 35.935h168.814v-36.982c0-29.238 23.788-53.023 53.025-53.023h1.014c14.141 0 27.418 5.542 37.381 15.608s15.37 23.396 15.227 37.535l-0.376 36.861h47.967c-2.829-11.523-4.36-23.552-4.36-35.935 0-83.162 67.668-150.815 150.843-150.815 83.169 0 150.833 67.653 150.833 150.815-0.005 31.557-9.766 60.869-26.404 85.112zM873.167 180.101c31.386 0 56.919-25.536 56.919-56.922s-25.533-56.922-56.919-56.922c-31.398 0-56.94 25.536-56.94 56.922s25.539 56.922 56.94 56.922zM314.081 123.18c0-31.386-25.533-56.922-56.919-56.922-31.397 0-56.94 25.536-56.94 56.922s25.543 56.922 56.94 56.922c31.386 0 56.919-25.536 56.919-56.922zM676.733 353.075c-0.294 29.171-24.269 52.9-53.44 52.9h-88.23v180.17l43.144-5.302c3.51-16.136 17.856-28.224 35.041-28.224h151.017l11.707-97.528-98.954-129.554-0.284 27.538zM440.161 711.534c58.478 0 106.053 47.575 106.053 106.056 0 7.436-0.778 14.693-2.24 21.701l23.268 0.458c13.86 0.275 28.805 9.925 34.755 22.451l7.805 16.423c3.707 7.802 3.512 15.948-0.535 22.352-4.045 6.399-11.31 10.070-20.012 10.070l-98.583-0.229c-15.027 8.175-32.236 12.82-50.514 12.82-58.478 0-106.053-47.572-106.053-106.051 0.003-58.476 47.578-106.051 106.056-106.051z" />
<glyph unicode="&#xe919;" glyph-name="compare-icon" d="M949.453 82.785v663.532c0 20.368-16.503 36.87-36.855 36.87h-184.326c-20.361 0-36.855-16.502-36.855-36.87v-663.532c0-20.376 16.494-36.87 36.855-36.87h184.317c20.361 0 36.864 16.494 36.864 36.87zM378.037 45.914h202.751c20.361 0 36.862 16.495 36.862 36.87v737.265c0 20.368-16.502 36.862-36.862 36.862h-202.751c-20.368 0-36.87-16.494-36.87-36.862v-737.265c0-20.375 16.494-36.87 36.87-36.87zM64.696 562.005c-20.368 0-36.862-16.494-36.862-36.862v-442.358c0-20.376 16.494-36.87 36.862-36.87h184.32c20.368 0 36.863 16.494 36.863 36.87v442.358c0 20.368-16.495 36.862-36.863 36.862h-184.32z" />
<glyph unicode="&#xe91a;" glyph-name="favorite-icon" d="M511.966-43.567l-70.377 74.396c-261.4 244.452-432.316 409.191-432.316 611.13 0 164.739 120.647 292.279 276.481 292.279 85.458 0 170.916-42.513 226.212-111.598 55.297 69.085 140.754 111.598 226.212 111.598 155.835 0 276.486-127.54 276.486-292.279 0-201.938-170.92-366.678-432.32-611.13l-70.378-74.396z" />
<glyph unicode="&#xe91b;" glyph-name="slider-up-arrow" d="M511.973 648.431l-462.454-462.455c-11.374-11.373-29.614-11.373-40.988 0s-11.374 29.614 0 40.987l483.055 483.057c11.377 11.374 29.617 11.374 40.991 0l482.84-483.057c5.581-5.577 8.585-13.090 8.585-20.384 0-7.298-2.789-14.807-8.585-20.388-11.373-11.373-29.614-11.373-40.987 0l-462.455 462.24z" />
<glyph unicode="&#xe91c;" glyph-name="slider-down-arrow" d="M511.973 247.566l-462.454 462.457c-11.374 11.374-29.614 11.374-40.988 0s-11.374-29.614 0-40.988l483.055-483.056c11.377-11.373 29.617-11.373 40.991 0l482.84 483.056c5.581 5.579 8.585 13.090 8.585 20.387s-2.789 14.807-8.585 20.387c-11.373 11.374-29.614 11.374-40.987 0l-462.455-462.242z" />
<glyph unicode="&#xe91d;" glyph-name="lock-closed" d="M204.8 550.4v102.4c0 169.677 137.523 307.2 307.2 307.2s307.2-137.523 307.2-307.2v0-102.4h51.2c56.576 0 102.4-45.824 102.4-102.4v0-409.6c0-56.576-45.824-102.4-102.4-102.4v0h-716.8c-56.576 0-102.4 45.824-102.4 102.4v0 409.6c0 56.32 46.080 102.4 102.4 102.4h51.2zM460.8 205.824v-116.224h102.4v116.224c30.822 18.022 51.2 50.995 51.2 88.678 0 56.576-45.824 102.4-102.4 102.4s-102.4-45.824-102.4-102.4c0-37.683 20.378-70.656 50.739-88.422l0.461-0.256zM358.4 652.8v-102.4h307.2v102.4c0 84.838-68.762 153.6-153.6 153.6s-153.6-68.762-153.6-153.6v0z" />
<glyph unicode="&#xe91e;" glyph-name="revire-arrow" d="M489.198 919.456c-0.012-0.012-0.025-0.021-0.037-0.035l-202.080-203.059c-15.139-15.212-15.082-39.817 0.132-54.96 15.213-15.14 39.818-15.082 54.958 0.13l135.673 136.334v-823.003c0-21.468 17.398-38.864 38.861-38.864s38.862 17.396 38.862 38.864v823.001l135.673-136.33c15.14-15.212 39.745-15.271 54.957-0.13 15.217 15.142 15.269 39.749 0.133 54.96l-202.080 203.059c-0.012 0.012-0.025 0.021-0.037 0.035-15.191 15.22-39.876 15.172-55.016-0.002z" />
<glyph unicode="&#xe91f;" glyph-name="category" d="M479.573 773.12c0 71.792-58.199 129.991-129.991 129.991v0h-162.702c-71.792 0-129.991-58.199-129.991-129.991v0-162.418c0-71.792 58.199-129.991 129.991-129.991v0h227.556c35.975 0 65.138 29.163 65.138 65.138v0 227.556zM544.427 773.12c0 71.792 58.199 129.991 129.991 129.991v0h162.418c0.084 0 0.184 0 0.284 0 71.792 0 129.991-58.199 129.991-129.991 0 0 0 0 0 0v0-162.418c0-71.792-58.199-129.991-129.991-129.991v0h-227.556c-35.975 0-65.138 29.163-65.138 65.138v0 227.556zM479.573 122.88c0-71.792-58.199-129.991-129.991-129.991v0h-162.702c-71.792 0-129.991 58.199-129.991 129.991v0 162.702c0 71.792 58.199 129.991 129.991 129.991v0h227.556c35.975 0 65.138-29.163 65.138-65.138v0zM544.427 122.88c0-71.792 58.199-129.991 129.991-129.991v0h162.418c0.084 0 0.184 0 0.284 0 71.792 0 129.991 58.199 129.991 129.991 0 0 0 0 0 0v0 162.702c0 71.792-58.199 129.991-129.991 129.991v0h-227.556c-35.975 0-65.138-29.163-65.138-65.138v0z" />
<glyph unicode="&#xe920;" glyph-name="accesorii_remorcare" d="M500.812 952.789c-8.496 0-17.265-0.218-25.76-0.589-69.335-3.533-147.437-29.962-175.39-92.067-105.782-236.82-184.159-476.909-210.468-718.525-5.618-50.809 8.221-98.566 41.107-135.419s86.873-61.276 148.259-62.803c55.631-1.308 118.935 4.797 175.116 16.137 14.249 3.053 28.226 6.323 41.38 10.031-27.678 13.52-46.040 37.725-46.040 64.984 0 1.963 0 3.707 0.274 5.669-6.303-1.527-13.153-3.271-20.004-4.579-46.589-9.378-103.864-14.611-147.985-13.739-32.338 0.655-53.987 10.903-70.704 29.875-16.991 18.754-27.131 47.538-23.294 82.865 25.76 232.895 101.397 466.442 205.535 699.184 11.235 25.383 42.751 37.747 88.517 40.080 5.481 0.283 11.509 0.305 17.265 0 40.558-1.396 81.939-13.825 93.723-22.461 111.537-82.014 206.082-190.175 242.805-288.522-0.548-1.963-1.096-3.489-2.466-6.76-4.384-10.032-12.059-24.86-22.198-42.959-4.934-8.505-10.415-18.1-16.169-27.913l86.599-37.943c7.125 11.776 13.977 23.333 19.731 33.801 10.687 19.189 19.183 35.544 25.212 49.282 3.014 6.76 5.481 12.866 7.125 19.408 1.918 6.324 5.756 11.557 0 27.476-42.203 121.025-148.532 240.090-273.771 331.982-41.107 29.984-98.383 43.068-158.398 43.504zM836.519 567.489c0-0.218 0.274-0.437 0-0.873 0 0-0.274-0.873-0.274-1.308 0 1.090 0 2.181 0.274 2.181zM742.795 463.253l-32.612-48.628 151.274-67.382c5.481-2.616 9.043-2.398 15.895 0.218 6.577 2.4 14.523 8.505 19.457 15.92 4.933 7.195 6.851 15.265 5.207 21.152-1.37 6.107-4.384 10.903-15.895 15.918h-0.274l-143.051 62.803zM719.227 365.561c-13.977-21.589-28.502-43.614-43.573-66.074l84.405-40.996c15.621 23.333 30.694 46.23 45.218 68.69l-86.049 38.38zM652.086 264.814c-16.169-23.986-32.612-47.538-48.781-70.871l84.132-40.778c16.443 23.333 32.886 46.885 49.054 70.653l-84.405 40.996zM579.189 159.707c-12.331-17.008-24.116-33.146-35.351-48.846h1.096c35.899 0 67.415-16.137 83.858-39.47 11.235 15.265 22.746 31.183 34.529 47.538l-84.132 40.778zM544.934 71.608c-26.034 0-46.588-16.354-46.588-37.070s20.554-37.072 46.588-37.072c26.034 0 46.588 16.355 46.588 37.072s-20.554 37.070-46.588 37.070z" />
<glyph unicode="&#xe921;" glyph-name="bare_transversale" d="M274.080 740.571h84.32v-175.543h-180.32l48.64 138.789c7.68 22.125 26.4 36.754 47.359 36.754zM435.2 565.028v175.543h129.92c15.52 0 30.241-8.046 40-21.943l107.52-153.6h-277.44zM845.119 563.2l-159.999 228.571c-29.12 41.691-73.28 65.829-120.001 65.829h-291.040c-62.879 0-119.36-43.703-142.56-110.263l-66.56-190.355c-38.080-17.188-64.96-59.427-64.96-108.982v-204.8c0-32.365 22.88-58.514 51.2-58.514h53.28c12.16-83.018 75.36-146.286 151.52-146.286s139.36 63.268 151.521 146.286h208.959c12.161-83.018 75.361-146.286 151.521-146.286s139.36 63.268 151.521 146.286h53.279c28.32 0 51.2 26.149 51.2 58.514v87.772c0 119.222-78.079 217.6-178.881 232.228zM695.52 243.2c3.259 11.016 8.401 21.18 15.128 29.906 6.726 8.724 14.901 15.835 24.053 20.918 9.15 5.083 19.094 8.038 29.252 8.692s20.33-1.006 29.923-4.882c9.591-3.876 18.416-9.892 25.956-17.699s13.649-17.247 17.971-27.775c4.321-10.527 6.768-21.931 7.201-33.548 0.433-11.618-1.159-23.219-4.683-34.127-3.259-11.016-8.402-21.18-15.128-29.906-6.726-8.724-14.901-15.835-24.053-20.918-9.15-5.083-19.094-8.038-29.252-8.692-10.159-0.654-20.33 1.006-29.923 4.882s-18.416 9.892-25.956 17.699c-7.541 7.806-13.649 17.247-17.971 27.775s-6.769 21.93-7.201 33.548c-0.433 11.618 1.159 23.217 4.683 34.127zM256 301.714c20.368 0 39.903-9.247 54.306-25.708s22.494-38.785 22.494-62.064c0-23.278-8.091-45.603-22.494-62.063s-33.938-25.708-54.306-25.708-39.903 9.247-54.306 25.708c-14.403 16.459-22.494 38.785-22.494 62.063s8.091 45.603 22.494 62.064 33.938 25.708 54.306 25.708z" />
<glyph unicode="&#xe922;" glyph-name="carlig_remorcare" d="M535.982 960c-80.623 0-145.536-63.197-145.536-141.686s64.913-141.687 145.536-141.687c80.623 0 145.536 63.197 145.536 141.687s-64.913 141.686-145.536 141.686zM535.982 892.53c41.813 0 76.233-33.465 76.233-74.216 0-40.707-34.42-74.217-76.233-74.217s-76.233 33.509-76.233 74.217c0 40.751 34.42 74.216 76.233 74.216zM535.982 852.048c-19.405 0-34.652-14.866-34.652-33.734 0-18.87 15.247-33.736 34.652-33.736s34.651 14.866 34.651 33.736c0 18.868-15.247 33.734-34.651 33.734zM431.335 667.406c-8.548-20.466-21.946-39.358-37.887-57.575-27.028-30.586-61.448-60.049-95.176-93.333-66.993-66.12-130.29-144.385-127.518-269.88 1.386-73.992 48.974-152.031 117.815-211.18s158.012-98.506 235.168-99.406c66.762-0.9 143.228 16.642 201.211 56.45 58.215 39.808 98.641 100.080 98.41 192.515 0 37.783-24.257 97.606-34.883 151.582-5.313 26.987-7.623 53.75 2.541 78.265 8.779 21.815 29.338 38.683 57.984 46.554 6.93 16.418 4.62 24.964-0.463 31.261-5.775 6.973-19.867 13.27-37.655 13.044-17.557-0.225-37.192-6.522-51.515-18.216-14.092-11.921-24.024-28.788-24.024-55.326 0.231-62.747-8.316-123.019-30.032-173.172-21.945-50.153-58.677-90.635-112.27-107.951-43.199-13.719-92.404-3.374-134.218 18.442-41.813 22.039-77.619 56.45-89.864 99.181-13.629 48.353-0.923 97.156 23.332 142.586 24.257 45.43 60.294 88.61 97.718 128.867 34.882 37.559 70.689 72.868 99.103 103.679-16.863-4.948-34.651-7.647-53.132-7.647-38.81 0-74.848 11.47-104.647 31.262z" />
<glyph unicode="&#xe923;" glyph-name="corturi_auto" d="M742.627 809.347l-39.479-0.423 0.922-85.492c-100.39-29.137-238.038-43.29-365.115-51.701 76.975-211.172 217.911-381.116 346.19-563.944 45.438 43.108 112.095 70.145 183.046 78.978-45.619 39.718-80.347 61.336-129.034 154.486 68.582-81.336 115.317-106.298 170.245-135.993 7.156 28.718 19.602 54.037 41.060 71.661 19.008 15.617 43.921 23.368 73.538 22.688-102.806 131.073-222.985 256.725-280.36 415.474l-1.013 94.267zM308.576 783.741l-39.475-0.535c0 0 0.549-40.224 1.229-81.084 0.343-20.432 0.713-41.019 1.073-56.868 0.131-5.781 0.255-10.045 0.381-14.348-75.399-183.646-151.67-353.094-271.785-511.99 73.769 3.042 145.468 2.638 216.147 0.089 48.827 137.333 51.203 295.768 78.138 443.045 25.040-150.371 23.174-305.835 73.436-451.431 94.224-6.76 187.937-15.787 283.693-23.963-122.096 173.595-259.267 340.031-340.208 546.913-0.109 3.909-0.22 7.449-0.333 12.583-0.356 15.695-0.73 36.239-1.070 56.629-0.68 40.781-1.226 80.961-1.226 80.961z" />
<glyph unicode="&#xe924;" glyph-name="covorase_auto" d="M270.4 701.44l-52.201-136.412h587.601l-52.201 136.412c-9 23.406-33.199 39.131-60.4 39.131h-362.4c-27.2 0-51.399-15.725-60.4-39.131zM79.2 556.252l70.4 183.771c27.001 70.4 99.601 117.577 181.2 117.577h362.4c81.599 0 154.199-47.177 181.2-117.577l70.399-183.771c46.401-17.554 79.2-59.429 79.2-108.252v-351.086c0-32.365-28.6-58.514-64-58.514h-64c-35.4 0-64 26.149-64 58.514v87.772h-640v-87.772c0-32.365-28.6-58.514-64-58.514h-64c-35.4 0-64 26.149-64 58.514v351.086c0 48.823 32.8 90.698 79.2 108.252zM256 389.486c0 15.518-6.743 30.402-18.745 41.375-12.003 10.975-28.282 17.139-45.255 17.139s-33.253-6.164-45.255-17.139c-12.002-10.973-18.745-25.857-18.745-41.375 0-15.52 6.743-30.402 18.745-41.376s28.282-17.138 45.255-17.138 33.253 6.164 45.255 17.138c12.001 10.975 18.745 25.857 18.745 41.376zM832 330.972c16.974 0 33.253 6.164 45.255 17.138s18.745 25.857 18.745 41.376c0 15.518-6.743 30.402-18.745 41.375-12.003 10.975-28.282 17.139-45.255 17.139s-33.253-6.164-45.255-17.139c-12.001-10.973-18.745-25.857-18.745-41.375 0-15.52 6.743-30.402 18.745-41.376 12.003-10.973 28.282-17.138 45.255-17.138z" />
<glyph unicode="&#xe925;" glyph-name="cutii_portbagaj" d="M75.352 874.099c5.017 12.168 16.053 19.15 27.257 17.355l409.354-61.041 409.353 61.041c11.204 1.596 22.241-5.386 27.258-17.355l69.73-166.366c15.050-35.706-1.004-78.994-33.109-89.966l-273.237-93.157c-23.243-7.979-48.159 3.79-60.533 28.526l-139.461 277.277-139.462-277.277c-12.374-24.736-37.29-36.505-60.533-28.526l-273.069 93.157c-32.273 10.972-48.159 54.26-33.277 89.966l69.731 166.366zM513.802 702.745l91.804-182.324c24.916-49.471 74.58-73.010 121.235-57.052l213.205 72.611v-333.132c0-43.886-25.084-82.186-60.868-92.957l-341.295-101.735c-17.057-5.187-34.95-5.187-51.839 0l-341.295 101.735c-35.785 10.97-60.868 49.271-60.868 93.157v333.132l213.373-72.81c46.487-15.958 96.317 7.58 121.233 57.052l91.637 182.324h3.678z" />
<glyph unicode="&#xe926;" glyph-name="genti_auto" d="M416.001 848c0 8.8 7.199 16 15.999 16h160.001c8.8 0 15.999-7.2 15.999-16v-144h-191.999v144zM768 704h-64v144c0 61.8-50.201 112-112 112h-160.001c-61.799 0-112-50.2-112-112v-144h-64c-70.6 0-128-57.4-128-128v-448c0-70.6 57.4-128 128-128 0-35.4 28.6-64 64-64s64 28.6 64 64h256c0-35.4 28.6-64 64-64s64 28.6 64 64c70.6 0 128 57.4 128 128v448c0 70.6-57.4 128-128 128zM351.999 512h320.001c17.599 0 31.999-14.4 31.999-31.999 0-17.601-14.4-32.001-31.999-32.001h-320.001c-17.599 0-31.999 14.4-31.999 32.001 0 17.599 14.4 31.999 31.999 31.999zM351.999 256h320.001c17.599 0 31.999-14.4 31.999-31.999 0-17.601-14.4-32.001-31.999-32.001h-320.001c-17.599 0-31.999 14.4-31.999 32.001 0 17.599 14.4 31.999 31.999 31.999z" />
<glyph unicode="&#xe927;" glyph-name="scuturi_metalice" d="M333.352 763.493h357.295c26.817 0 50.676-16.958 59.549-42.197l51.465-147.098h-579.324l51.465 147.098c8.873 25.239 32.732 42.197 59.549 42.197zM154.705 762.901l-69.409-198.17c-45.746-18.93-78.084-64.084-78.084-116.732v-157.746c0-46.732 25.437-87.549 63.099-109.239v-111.606c0-34.901 28.197-63.099 63.099-63.099h63.099c34.901 0 63.099 28.197 63.099 63.099v94.648h504.789v-94.648c0-34.901 28.197-63.099 63.099-63.099h63.099c34.901 0 63.099 28.197 63.099 63.099v111.606c37.662 21.888 63.099 62.507 63.099 109.239v157.746c0 52.648-32.338 97.802-78.085 116.732l-69.408 198.17c-26.62 75.916-98.197 126.789-178.648 126.789h-357.295c-80.45 0-152.028-50.873-178.648-126.789zM417.352 416.451h189.296c17.352 0 31.549-14.198 31.549-31.549v-63.099c0-17.352-14.198-31.549-31.549-31.549h-189.296c-17.352 0-31.549 14.198-31.549 31.549v63.099c0 17.352 14.198 31.549 31.549 31.549zM101.859 400.677c0 26.224 21.099 47.323 47.325 47.323h63.099c26.224 0 47.323-21.099 47.323-47.323 0-26.226-21.099-47.325-47.323-47.325h-63.099c-26.226 0-47.325 21.099-47.325 47.325zM811.718 448h63.099c26.226 0 47.325-21.099 47.325-47.323 0-26.226-21.099-47.325-47.325-47.325h-63.099c-26.224 0-47.323 21.099-47.323 47.325 0 26.224 21.099 47.323 47.323 47.323z" />
<glyph unicode="&#xe928;" glyph-name="support_biciclete" d="M640 721.067c20.368 0 39.903 8.63 54.306 23.994 14.403 15.362 22.494 36.199 22.494 57.926s-8.091 42.563-22.494 57.926c-14.403 15.363-33.938 23.994-54.306 23.994s-39.903-8.631-54.306-23.994c-14.403-15.363-22.494-36.2-22.494-57.926s8.091-42.563 22.494-57.926c14.403-15.364 33.938-23.994 54.306-23.994zM683.52 611.84l-98.88 83.285c-27.679 23.211-66.72 23.552-94.56 0.512l-132.96-109.568c-49.119-40.619-45.599-120.832 6.881-156.331l96.799-65.536v-189.269c0-30.208 22.88-54.613 51.2-54.613s51.2 24.405 51.2 54.613v218.453c0 18.261-8.48 35.328-22.721 45.397l-68.48 48.64 96.48 82.773 65.12-55.637c9.12-7.68 20.32-11.947 32.001-11.947h102.4c28.32 0 51.2 24.405 51.2 54.613s-22.88 54.613-51.2 54.613h-84.48zM89.6 229.547c0 32.589 12.137 63.844 33.741 86.89 21.604 23.044 50.905 35.99 81.459 35.99s59.855-12.946 81.459-35.99c21.605-23.045 33.741-54.301 33.741-86.89s-12.136-63.844-33.741-86.89c-21.604-23.044-50.905-35.99-81.459-35.99s-59.855 12.946-81.459 35.99c-21.604 23.045-33.741 54.301-33.741 86.89zM409.6 229.547c0 57.938-21.578 113.502-59.985 154.47s-90.5 63.984-144.815 63.984c-54.316 0-106.408-23.015-144.815-63.984s-59.985-96.532-59.985-154.47c0-57.938 21.577-113.502 59.985-154.47s90.5-63.984 144.815-63.984c54.316 0 106.409 23.015 144.815 63.984s59.985 96.532 59.985 154.47zM704 229.547c0 32.589 12.136 63.844 33.741 86.89 21.604 23.044 50.905 35.99 81.459 35.99s59.855-12.946 81.459-35.99c21.605-23.045 33.741-54.301 33.741-86.89s-12.136-63.844-33.741-86.89c-21.604-23.044-50.905-35.99-81.459-35.99s-59.855 12.946-81.459 35.99c-21.605 23.045-33.741 54.301-33.741 86.89zM1024 229.547c0 57.938-21.578 113.502-59.985 154.47s-90.5 63.984-144.815 63.984c-54.316 0-106.409-23.015-144.815-63.984s-59.985-96.532-59.985-154.47c0-57.938 21.578-113.502 59.985-154.47s90.5-63.984 144.815-63.984c54.316 0 106.409 23.015 144.815 63.984s59.985 96.532 59.985 154.47z" />
<glyph unicode="&#xe929;" glyph-name="support_ski" d="M761.364 863.097c0 12.606 2.482 25.089 7.307 36.736 4.824 11.647 11.895 22.229 20.809 31.143s19.496 15.985 31.143 20.809c11.646 4.824 24.13 7.307 36.736 7.307s25.089-2.483 36.736-7.307c11.648-4.824 22.23-11.895 31.143-20.809s15.985-19.497 20.81-31.143c4.824-11.647 7.307-24.13 7.307-36.736s-2.484-25.089-7.307-36.736c-4.825-11.647-11.896-22.229-20.81-31.144-8.913-8.914-19.496-15.985-31.143-20.809-11.646-4.824-24.13-7.307-36.736-7.307s-25.089 2.484-36.736 7.307c-11.648 4.824-22.229 11.895-31.143 20.809s-15.985 19.497-20.809 31.144c-4.825 11.647-7.307 24.13-7.307 36.736zM5.396 421.316c12.199 23.6 41.198 32.599 64.797 20.399l395.183-205.19 92.396 138.393-150.193 150.193c-29.199 29.199-40.799 67.798-36.798 104.197l217.59-103.996 78.597-78.597c32.398-32.398 37.398-82.996 12-121.195l-99.396-148.393 257.389-133.595c27.199-14.199 59.598-14.399 87.197-0.599l30.398 15.199c23.799 11.799 52.598 2.2 64.397-21.399 11.801-23.6 2.201-52.598-21.399-64.397l-30.398-15.199c-54.998-27.4-119.796-26.999-174.393 1.399l-766.968 397.982c-23.399 12.201-32.599 41.199-20.399 64.797zM237.786 827.899l36.198-17.2 17.4 34.799c7.999 15.799 27.199 22.199 42.998 14.399s22.199-27.199 14.399-42.998l-16.998-33.799 109.395-52.397c3 1.399 6.2 2.8 9.4 4.2l166.792 66.798c68.398 27.398 145.594-8.4 168.993-78.397l34.199-102.396 104.195-52.197c31.599-15.8 44.398-54.198 28.6-85.796-15.8-31.599-54.198-44.399-85.798-28.6l-116.194 57.998c-22.8 11.399-39.999 31.399-48.199 55.598l-11.599 34.598-68.197-30.198-13.399 6.401-306.987 146.993-18.399-36.798c-7.999-15.8-27.199-22.199-42.998-14.399-15.8 7.799-22.199 27.199-14.399 42.997l17.999 35.998-35.2 16.8c-15.999 7.599-22.599 26.799-14.998 42.597 7.599 15.8 26.799 22.6 42.597 15h0.201z" />
<glyph unicode="&#xe92a;" glyph-name="tavite_portbagaj" d="M115.886 844.655l-115.886-203.85h475.428v257.072h-261.257c-41.6 0-79.543-20.686-98.286-53.222zM548.572 640.804h475.428l-115.885 203.85c-18.743 32.536-56.686 53.222-98.286 53.222h-261.257v-257.072zM1024 576.535h-1024v-449.877c0-70.895 65.6-128.535 146.286-128.535h731.428c80.686 0 146.286 57.64 146.286 128.535v449.877z" />
<glyph unicode="&#xe92b;" glyph-name="transport_copii" d="M512 583.639h-502.682c5.107 146.194 80.932 274.434 194.276 350.983 26.126 17.559 60.503 8.484 78.379-17.362l230.028-333.621zM763.439 646.773c0 69.645 56.377 126.267 125.719 126.267h62.861c34.769 0 62.859-28.212 62.859-63.134 0-34.92-28.091-63.134-62.859-63.134h-62.861v-126.267c0-49.718-11.393-99.040-33.393-145.009-22.002-45.968-54.609-87.795-95.468-122.913s-89.379-63.134-142.81-82.073c-53.431-18.941-110.594-28.804-168.346-28.804-57.754 0-114.916 9.863-168.347 28.804-53.431 18.939-101.951 46.954-142.81 82.073s-73.271 76.945-95.468 122.913c-22.197 45.97-33.394 95.292-33.394 145.009h754.318v126.267zM166.271 141.706c25.008 0 48.99-9.978 66.673-27.738 17.682-17.759 27.616-41.847 27.616-66.963s-9.934-49.204-27.616-66.963c-17.684-17.759-41.666-27.736-66.673-27.736s-48.99 9.977-66.673 27.736c-17.683 17.759-27.617 41.847-27.617 66.963s9.934 49.204 27.617 66.963c17.683 17.759 41.666 27.738 66.673 27.738zM637.719 47.005c0 25.116 9.934 49.204 27.618 66.963 17.682 17.759 41.666 27.738 66.672 27.738 25.008 0 48.99-9.978 66.673-27.738 17.682-17.759 27.616-41.847 27.616-66.963s-9.934-49.204-27.616-66.963c-17.684-17.759-41.666-27.736-66.673-27.736s-48.99 9.977-66.672 27.736c-17.684 17.759-27.618 41.847-27.618 66.963z" />
<glyph unicode="&#xe92c;" glyph-name="bare_transversale_2" d="M274.080 696.686h84.32v-149.212h-180.32l48.64 117.971c7.68 18.807 26.4 31.241 47.359 31.241zM435.2 547.474v149.212h129.92c15.52 0 30.241-6.839 40-18.652l107.52-130.56h-277.44zM845.119 545.92l-159.999 194.285c-29.12 35.438-73.28 55.954-120.001 55.954h-291.040c-62.879 0-119.36-37.147-142.56-93.723l-66.56-161.801c-38.080-14.61-64.96-50.515-64.96-92.635v-174.080c0-27.511 22.88-49.738 51.2-49.738h53.28c12.16-70.565 75.36-124.342 151.52-124.342s139.36 53.778 151.521 124.342h208.959c12.161-70.565 75.361-124.342 151.521-124.342s139.36 53.778 151.521 124.342h53.279c28.32 0 51.2 22.226 51.2 49.738v74.606c0 101.339-78.079 184.96-178.881 197.394zM695.52 273.92c3.259 9.363 8.401 18.003 15.128 25.42 6.726 7.416 14.901 13.459 24.053 17.781 9.15 4.321 19.094 6.832 29.252 7.388s20.33-0.855 29.923-4.149c9.591-3.295 18.416-8.409 25.956-15.045s13.649-14.66 17.971-23.608c4.321-8.948 6.768-18.641 7.201-28.516s-1.159-19.735-4.683-29.008c-3.259-9.362-8.402-18.003-15.128-25.42-6.726-7.415-14.901-13.459-24.053-17.781-9.15-4.32-19.094-6.831-29.252-7.388-10.159-0.556-20.33 0.855-29.923 4.151s-18.416 8.408-25.956 15.043-13.649 14.661-17.971 23.609c-4.321 8.948-6.769 18.641-7.201 28.516s1.159 19.735 4.683 29.007zM256 323.658c20.368 0 39.903-7.86 54.306-21.852s22.494-32.967 22.494-52.754-8.091-38.763-22.494-52.755c-14.403-13.991-33.938-21.851-54.306-21.851s-39.903 7.86-54.306 21.851c-14.403 13.992-22.494 32.969-22.494 52.755s8.091 38.763 22.494 52.754c14.403 13.992 33.938 21.852 54.306 21.852z" />
<glyph unicode="&#xe92d;" glyph-name="accesorii_remorcare_2" d="M76.8 804.392c-42.4 0-76.8-34.207-76.8-76.37v-407.305c0-42.163 34.4-76.37 76.8-76.37h27.36c12.48 86.393 87.040 152.74 177.44 152.74s164.96-66.347 177.44-152.74h513.76c28.32 0 51.2 22.752 51.2 50.913s-22.88 50.913-51.2 50.913h-102.4v381.849c0 42.162-34.4 76.37-76.8 76.37h-716.8zM128 702.565c14.081 0 25.6-11.455 25.6-25.457v-208.743c-18.24-9.388-35.52-20.525-51.2-33.412v242.156c0 14.001 11.52 25.457 25.6 25.457zM281.6 498.913c-8.64 0-17.12-0.319-25.6-1.114v179.31c0 14.001 11.519 25.457 25.6 25.457s25.6-11.455 25.6-25.457v-179.31c-8.48 0.795-16.96 1.114-25.6 1.114zM409.6 468.365v208.743c0 14.001 11.519 25.457 25.6 25.457s25.6-11.455 25.6-25.457v-242.156c-15.679 12.887-32.961 24.184-51.2 33.412zM588.8 702.565c14.081 0 25.6-11.455 25.6-25.457v-305.479c0-14.001-11.519-25.457-25.6-25.457s-25.6 11.455-25.6 25.457v305.479c0 14.001 11.519 25.457 25.6 25.457zM768 677.109v-305.479c0-14.001-11.519-25.457-25.6-25.457s-25.6 11.455-25.6 25.457v305.479c0 14.001 11.519 25.457 25.6 25.457s25.6-11.455 25.6-25.457zM281.6 91.607c33.948 0 66.505 13.41 90.509 37.28s37.491 56.245 37.491 90.003-13.485 66.133-37.491 90.003c-24.004 23.87-56.562 37.28-90.509 37.28s-66.505-13.41-90.509-37.28c-24.005-23.87-37.491-56.245-37.491-90.003s13.485-66.133 37.491-90.003c24.004-23.87 56.562-37.28 90.509-37.28zM281.6 269.804c13.58 0 26.602-5.364 36.203-14.912s14.997-22.498 14.997-36.001-5.394-26.453-14.997-36.001c-9.601-9.548-22.624-14.912-36.203-14.912s-26.602 5.364-36.203 14.912c-9.602 9.548-14.997 22.498-14.997 36.001s5.394 26.453 14.997 36.001c9.601 9.548 22.624 14.912 36.203 14.912z" />
<glyph unicode="&#xe92e;" glyph-name="icon-ccesorii_remorcare" d="M921.054 412.228h-30.857c-11.196 0-20.343-9.148-20.343-20.343v-8.465h-112.367c-0.41 10.65-8.738 19.115-19.934 19.115h-20.617v236.203c0 37.41-30.174 67.721-67.311 67.721h-459.162c-37.41 0-67.721-30.174-67.721-67.721v-236.203h-20.207c-11.059 0-19.934-8.738-19.934-19.524v-37.137c0-10.65 8.738-19.934 19.934-19.934h139.127v3.823c0 5.325 0.41 9.967 0.819 15.292 0 1.502 0.41 2.731 0.41 4.233 1.092 10.65 3.004 21.436 6.827 33.997 0.41 1.502 1.092 3.004 1.502 4.642 1.502 3.823 3.004 7.236 3.823 9.148 3.823 10.65 9.148 19.115 12.561 25.259 32.495 53.521 89.429 85.606 152.098 85.606 61.986 0 120.422-32.905 152.098-85.197 3.413-5.325 7.646-12.561 10.65-20.207 0.819-1.502 1.502-2.731 1.911-4.233 1.502-3.823 3.004-8.055 4.642-12.288 0.41-0.819 0.819-1.911 0.819-2.731 3.823-11.469 6.144-22.528 7.646-35.499v-2.731c0.41-4.915 0.819-9.967 0.819-15.292v-3.823h139.127c10.65 0 19.524 8.738 19.934 19.115h112.367v-8.192c0-11.196 9.148-20.343 20.343-20.343h30.857c11.196 0 20.343 9.148 20.343 20.343v54.886c0 11.332-9.011 20.48-20.207 20.48zM552.55 374.545c-0.819 3.004-1.911 6.144-3.004 8.738-2.731 6.827-6.144 12.971-9.967 19.115-24.439 40.55-69.222 67.311-119.603 67.311s-94.754-26.761-119.33-67.311c-3.823-6.144-7.236-12.288-9.967-19.115-1.092-2.731-2.321-5.734-3.413-8.738-3.004-9.557-5.325-19.115-6.554-29.491-0.41-4.915-0.819-9.967-0.819-15.292 0-1.092 0-2.731 0.41-3.823 1.911-75.639 63.488-136.533 139.537-136.533s138.035 60.757 139.947 136.533c0.41 1.092 0.41 2.731 0.41 3.823 0 5.325-0.41 10.377-0.819 15.292-1.092 10.377-3.413 19.934-6.827 29.491zM419.84 266.001c-33.997 0-61.577 26.761-63.078 60.075-0.41 1.092-0.41 2.731-0.41 3.823 0 5.325 0.819 10.377 1.911 15.292 2.731 11.059 8.465 21.436 16.384 29.491 3.004 3.413 6.827 6.144 11.059 8.738 9.967 6.554 21.436 9.967 33.997 9.967s24.439-3.413 33.997-9.967c4.233-2.731 8.055-5.325 11.469-8.738 8.055-8.055 13.79-18.295 16.384-29.491 1.092-4.915 1.911-9.967 1.911-15.292 0-1.092 0-2.731-0.41-3.823-1.638-33.314-29.218-60.075-63.215-60.075z" />
<glyph unicode="&#xe92f;" glyph-name="icon-bare_transversale" d="M831.351 455.236c-11.196 17.34-27.443 27.716-46.831 33.86-2.048 0.683-3.277 1.638-4.233 3.823-15.565 38.912-30.993 77.824-46.694 116.736-4.369 10.786-8.602 21.709-14.336 31.812-8.055 14.609-20.617 24.576-36.864 29.491-8.875 2.731-18.022 3.14-27.17 3.14v51.61h74.411c11.469 0 20.89 9.284 20.89 20.89 0 11.469-9.284 20.89-20.89 20.89h-435.541c-11.469 0-20.89-9.284-20.89-20.89 0-11.469 9.284-20.89 20.89-20.89h74.547v-51.473c-0.956 0-1.911 0-2.867 0-8.329-0.137-16.384-0.956-24.303-3.413-21.709-6.69-35.226-21.982-43.418-42.325-18.432-45.193-36.454-90.658-54.477-135.987-0.683-1.775-1.638-2.731-3.55-3.277-11.059-3.277-21.299-8.329-30.31-15.565-16.657-13.517-27.443-30.447-27.443-52.565-0.273-60.621-0.137-121.378-0.137-181.999 0-0.956 0.137-2.048 0.137-3.14h53.931v-63.351c0.137-10.103 2.867-19.388 9.421-27.17 10.103-11.878 23.347-16.657 38.502-17.067 26.624-0.683 52.702 16.384 52.702 49.971 0 18.159 0.683 36.181 0.956 54.34 0 0.819 0.137 1.638 0.273 2.594h348.023c0-1.365-0.137-2.458 0-3.413 0.273-18.842 0.41-37.82 1.229-56.661 0.819-19.661 10.24-33.997 28.262-42.189 10.513-4.779 21.709-5.734 33.041-3.823 22.528 3.823 39.731 20.070 39.185 45.466-0.41 19.524-0.137 38.912-0.137 58.436 0 0.819 0.137 1.638 0.137 3.004h53.931v3.959c0 59.802-0.137 119.603 0 179.405 0.273 13.107-3.413 24.986-10.377 35.772zM414.925 725.845h194.014v-51.2c-33.451 0.273-67.038 0.683-100.489 0.683-31.13 0-62.396-0.41-93.525-0.683v51.2zM288.358 346.146c-24.166-0.137-44.1 19.934-44.1 44.237 0.137 24.303 19.797 43.964 43.964 43.964 24.166 0.137 44.373-20.070 44.237-44.237 0-24.030-19.934-43.827-44.1-43.964zM303.241 493.056c5.734 15.292 11.332 30.037 16.794 44.646 7.919 21.163 15.974 42.325 23.757 63.488 4.915 13.107 13.38 19.797 27.17 20.070 20.48 0.273 40.96 0.137 61.303 0.137l108.544-0.273c36.864-0.137 73.591-0.273 110.455-0.41 3.686 0 7.646-0.41 11.332-1.229 6.144-1.365 10.513-5.325 14.063-10.377 4.915-7.373 7.373-15.701 10.377-23.757 11.196-29.901 22.255-59.665 33.314-89.566 0.41-0.956 0.683-1.775 0.956-2.594h-418.065zM738.236 346.146c-24.303 0-43.964 19.934-43.964 44.373 0.137 24.303 19.934 43.964 43.964 43.964 24.439-0.137 44.373-20.070 44.1-44.646 0-23.893-20.070-43.691-44.1-43.691z" />
<glyph unicode="&#xe930;" glyph-name="icon-carlige_remorcare" d="M789.845 559.275c-0.41-77.005-19.524-147.046-75.776-202.615-39.322-38.775-87.381-60.621-140.493-70.315-27.716-4.915-55.979-6.69-84.105-7.919-34.133-1.229-68.13-0.273-102.263-0.273h-11.469v-208.896h-69.632v49.971h-17.067c-16.657 0-16.794 0-20.617 16.111-33.451 140.493-67.038 280.849-100.352 421.342-0.956 4.233-1.638 8.602-1.638 12.834-0.137 36.454-0.137 72.772-0.137 109.227 0 2.731 0.41 5.461 0.546 9.011h10.513c47.241 0 71.27 0.137 118.647-0.137 7.509 0 10.103 1.911 9.83 9.967-0.546 24.849-0.137 49.835-0.137 74.684v10.786h69.905v-314.163h12.015c62.123 0 124.518 0.819 186.778-0.273 39.595-0.683 54.34 18.705 58.846 55.023 1.365 10.786 1.092 21.709 1.911 32.631 0.137 1.365 0.273 3.004 0.546 4.506h153.873c0.273-0.273 0.273-0.819 0.273-1.502zM855.108 668.092c-3.413-18.705-11.878-36.318-18.295-54.477-2.867-7.919-8.738-10.513-16.794-10.377-13.244 0.137-26.487 0.137-39.868 0.137-22.528 0-45.193-0.137-67.857 0h-42.598c-21.436 0-42.598 0-64.034-0.273-9.148 0-14.336 3.277-18.295 11.469-23.757 49.015-29.628 98.441-1.365 147.729 24.030 41.506 61.44 61.030 107.452 63.761 19.934 1.092 40.414 0 60.211-3.277 68.676-11.605 115.098-80.282 101.444-154.692z" />
<glyph unicode="&#xe931;" glyph-name="icon-corturi_auto" d="M759.808 470.391c8.738 0 15.838 7.236 15.838 15.838 0 8.875-7.236 15.838-15.838 15.838h-37.547l-113.186 195.516c-0.41 0.819-0.683 1.502-1.092 2.321l-31.949 55.023-46.421 80.555 16.111 27.716c2.731 4.642 1.092 10.65-3.55 13.38s-10.65 1.092-13.38-3.55l-10.377-18.022-0.137 0.137-0.137-0.137-10.377 18.022c-2.731 4.642-8.738 6.281-13.38 3.55s-6.281-8.738-3.55-13.38l16.111-27.853-78.37-135.441v-0.137c-0.137-0.137-0.137-0.273-0.137-0.546l-114.005-197.291h-37.547c-8.875 0-15.838-6.963-15.838-15.838 0-8.738 6.963-15.838 15.838-15.838h115.78v-29.628h-5.871c-21.845-0.41-41.506-13.38-48.469-34.816-14.199-34.953-28.126-70.178-42.189-105.267-0.683-1.502-1.229-2.321-2.731-2.731-8.738-2.594-16.521-6.417-23.484-11.878-12.971-10.65-21.163-23.757-21.436-40.96-0.273-47.104 0-94.071 0-141.175 0-0.819 0-1.502 0.273-2.594h41.779v-49.152c0-7.782 2.321-14.882 7.373-21.026 7.782-9.148 18.022-12.971 29.628-13.38 20.753-0.41 41.097 12.698 41.097 39.049 0 13.926 0.41 27.989 0.683 41.916 0 0.819 0.273 1.502 0.273 2.185h270.199c0-1.092-0.273-1.911 0-2.731 0.273-14.609 0.273-29.218 0.819-43.827 0.683-15.292 7.782-26.214 21.982-32.631 8.055-3.823 16.794-4.642 25.668-3.004 17.34 2.731 30.72 15.428 30.31 35.226-0.41 15.019 0 30.31 0 45.329v2.321h41.916v3.004c0 46.421-0.273 92.843 0 139.264 0 10.103-2.731 19.251-8.329 27.716-8.738 13.38-21.436 21.436-36.181 26.214-1.638 0.41-2.731 1.229-3.413 3.004-12.015 30.037-23.893 60.348-36.181 90.522-3.413 8.329-6.554 16.794-11.059 24.576-9.148 15.838-24.849 23.757-42.598 25.805-2.185 0.273-4.506 0.41-6.827 0.41 0 0 0 0-0.137 0v28.126h144.043zM518.281 710.144c15.701-77.141 48.333-147.456 92.433-208.077h-185.276c43.008 62.123 74.001 131.345 92.843 208.077zM330.82 186.812c-18.842 0-34.27 15.428-34.133 34.27 0 18.842 15.292 34.133 34.133 34.133 18.705 0.273 34.27-15.428 34.27-34.27-0.137-18.705-15.701-33.86-34.27-34.133zM679.799 255.215c19.115 0 34.543-15.428 34.27-34.543-0.273-18.432-15.701-33.86-34.27-33.86-18.842 0-34.133 15.428-34.133 34.543 0.137 18.842 15.428 34.133 34.133 33.86zM621.090 398.985c4.915-1.092 8.329-4.233 11.059-8.055 3.823-5.734 5.461-12.288 8.055-18.432 8.465-23.347 17.203-46.421 25.668-69.495 0.41-0.819 0.683-1.502 0.819-2.185h-324.403c4.506 11.878 8.738 23.347 13.107 34.679 6.144 16.247 12.288 32.905 18.432 49.152 3.823 10.103 10.377 15.428 21.026 15.701 15.838 0.273 31.812 0 47.65 0l84.241-0.137c28.399-0.273 56.934-0.273 85.606-0.41 3.004 0 6.007-0.273 8.738-0.819zM579.447 442.402h-5.871c-48.333 0-96.393-0.41-144.725-1.092v29.082h150.596v-27.989z" />
<glyph unicode="&#xe932;" glyph-name="icon-covorase_auto" d="M276.1 926.9c-17.1-2.9-34.8-15.6-43.5-31.2-5.9-10.6-7.6-17.3-8.6-34-0.5-8.4-1.6-18.6-2.5-22.7-4.9-23.8-17.1-48.3-36.4-73-11.4-14.7-21.3-25.4-58-63-19.6-20.1-39.5-41-44.2-46.5-30.7-35.7-46.3-66.4-49.9-98.3-0.8-6.7-1-51.9-0.8-146.2l0.3-136.5 2.3-6.5c3.8-10.5 9.1-19 16.1-26 7.6-7.5 14.8-12 25.3-15.8l7.3-2.7 264.5-0.3c230.9-0.2 265.5 0 272.4 1.3 18.8 3.5 36 16.6 44.3 33.5 7.9 16.1 7.3-10.6 7.3 317 0 327.7 0.6 300.9-7.3 317-7.2 14.8-21.1 26.6-38 32.4l-6.2 2.1-169.5 0.1c-96.6 0.1-171.8-0.2-174.9-0.7zM172.8 372.3c2.8-1.7 5.8-4.8 7.7-7.7 2.7-4.4 3-5.8 3-12.6s-0.3-8.2-3-12.6c-8.5-13.7-27.5-15.1-38.4-2.8-11.4 13-5.9 33.1 10.7 38.5 5.3 1.7 14.9 0.4 20-2.8zM556.8 372.3c2.8-1.7 5.8-4.8 7.7-7.7 2.7-4.4 3-5.8 3-12.6s-0.3-8.2-3-12.6c-8.5-13.7-27.5-15.1-38.4-2.8-11.4 13-5.9 33.1 10.7 38.5 5.3 1.7 14.9 0.4 20-2.8zM704 476.2c0-215.2 0.3-204-6-221.5-9.1-25.1-31.6-47.6-56.7-56.7-17.2-6.2-12.7-6-157.5-6h-131.9l0.3-86.2 0.3-86.3 2.3-6.5c3.8-10.5 9.1-19 16.1-26 7.6-7.5 14.8-12 25.3-15.8l7.3-2.7 264.5-0.3c296.3-0.3 272.8-0.9 289 7.1 11.7 5.7 22 16 27.7 27.7 7.7 15.6 7.3 7.7 7.3 157.7 0 86.5-0.4 136.9-1 142.3-3.2 26.1-14.5 51.5-34.8 78.7-12.9 17.1-22.1 27.3-60.6 66.6-35.4 36.2-45.3 47-56.7 61.7-19.3 24.7-31.5 49.2-36.4 73-0.9 4.1-2 14-2.5 22s-1.6 17-2.4 20c-5.6 20.4-22.2 37.5-42.9 44.3-5.3 1.7-9.6 2.1-28.4 2.5l-22.3 0.4v-196zM492.8 116.3c2.8-1.7 5.8-4.8 7.7-7.7 2.7-4.4 3-5.8 3-12.6s-0.3-8.2-3-12.6c-8.5-13.7-27.5-15.1-38.4-2.8-11.4 13-5.9 33.1 10.7 38.5 5.3 1.7 14.9 0.4 20-2.8zM876.8 116.3c2.8-1.7 5.8-4.8 7.7-7.7 2.7-4.4 3-5.8 3-12.6s-0.3-8.2-3-12.6c-8.5-13.7-27.5-15.1-38.4-2.8-11.4 13-5.9 33.1 10.7 38.5 5.3 1.7 14.9 0.4 20-2.8z" />
<glyph unicode="&#xe933;" glyph-name="icon-cutii_portbagaj" d="M907.401 243.063c-3.14 20.207-11.605 49.425-33.724 59.938-46.012 22.118-129.161 33.178-129.161 33.178l0.273-0.819c-14.336 26.624-28.945 53.111-43.281 79.599-12.288 22.938-30.72 33.724-56.661 33.451-10.786 0-21.572 0-32.358 0v35.089h169.438c6.281 0 12.015 4.506 13.926 11.196 0 0.273 0 0.546 0.273 0.956v23.893c-9.284-2.048-18.842-3.55-28.535-3.55h-552.96c-19.388 0-38.093 4.369-55.569 12.015v-14.882c0-16.93 12.698-29.628 29.628-29.628h128.068v-35.499c-13.38 0-26.897 0-40.277 0-19.661 0-38.229-8.875-50.517-24.166-24.576-30.31-49.289-60.348-73.865-90.931-22.528-28.262-35.772-59.529-35.772-94.481 0-8.192 7.236-28.945 15.292-28.945h758.989c10.377 0 18.432 23.484 16.794 33.587zM354.167 483.499h220.911v-35.226c-73.591-0.137-147.183-0.273-220.911-0.273v35.499zM298.462 270.78c-0.41-0.41-0.683-0.683-0.956-0.956-31.676 0-63.078-0.546-94.618 0-16.384 0.546-25.395 18.432-17.067 32.768 3.277 6.007 7.782 11.332 12.151 16.93 17.886 23.347 35.499 46.831 53.385 70.178 13.38 17.613 24.166 21.709 47.377 17.613v-136.533zM495.753 269.961h-139.947v137.762h139.947v-137.762zM682.53 269.551c-43.008-0.273-86.153 0-130.116 0v138.172c3.004 0.273 5.734 0.546 8.602 0.546 22.391 0 44.783-0.546 66.901 0.273 19.388 0.273 29.355-9.83 38.502-28.672 12.425-25.805 23.893-48.333 36.045-69.359 13.38-23.484 4.779-40.96-19.934-40.96zM767.59 537.839c8.875 0 17.476 1.502 25.941 3.55-1.911 3.686-4.506 6.963-8.329 9.83-3.004 2.458-6.007 4.233-9.967 5.734-6.281 3.686-13.244 6.69-20.207 9.694-49.835 21.709-99.669 43.554-150.733 62.805-36.864 14.199-73.728 26.624-111.821 36.591-39.322 10.24-79.462 17.476-119.603 19.934-43.827 2.048-86.699-1.502-129.024-12.698-14.473-3.959-28.399-7.919-42.052-14.473-9.694-4.506-18.159-11.469-23.893-20.48-4.233-6.281-6.281-13.244-8.465-20.207-3.277-12.015-7.236-38.912-7.509-39.322l-2.594-26.624c16.93-9.148 35.635-14.199 55.159-14.199h553.097z" />
<glyph unicode="&#xe934;" glyph-name="icon-genti_rucsacuri" d="M802.953 338.227c0.137-37.001 0.137-74.001 0-111.002 0-32.358-10.513-43.145-42.325-43.964-2.594-0.137-5.188-0.546-9.011-1.092 0-13.107 0.137-25.532 0-38.093-0.41-24.713-13.107-37.274-37.82-37.683-9.421-0.137-18.842 0-30.31 0v15.428c0 32.495 0.273 64.853 0 97.348-0.273 30.993-18.842 49.698-49.835 49.698-80.691 0.137-161.382 0.137-242.21 0-31.812 0-50.654-18.569-50.927-50.108-0.137-32.085 0-64.034 0-95.983v-15.565c-14.746 0-28.262-1.092-41.506 0.41-15.019 1.502-25.668 15.838-26.624 32.768-0.273 6.69 0 13.653 0 20.343v22.391c-6.281 0-11.878-0.273-17.476 0-18.978 0.956-33.041 13.244-33.451 32.358-0.819 45.875-0.956 92.023 0 137.899 0.546 21.709 15.155 33.997 37.274 34.543 4.369 0.137 8.875 0 14.609 0v17.34c0.137 62.669 0 125.338 0.137 188.006 0.137 24.303 10.377 43.008 33.314 58.846v-16.657c0-43.145-0.137-86.562 0.137-129.707 0.137-37.274 20.753-57.89 57.754-57.89 32.495-0.137 64.853 0 97.485 0h14.336c5.461-35.362 5.461-35.362 47.923-34.543 18.022 0.546 20.753 4.233 23.62 34.543h12.971c32.768 0 65.809-0.137 98.714 0 37.137 0 57.89 20.343 58.027 57.344 0.273 43.691 0.137 87.518 0.137 131.209v15.292c23.757-15.292 33.451-35.089 33.587-60.211 0-62.669 0-125.201 0.137-187.87v-14.199c2.185-0.819 3.004-1.365 3.959-1.365 40.414-2.321 47.377-9.694 47.377-49.835zM682.257 661.675h-41.097c-1.775 34.953-12.561 64.717-36.454 89.020-23.757 24.303-52.429 37.41-86.426 38.775-28.945 1.229-55.569-6.144-79.053-22.665-35.772-25.259-52.975-61.303-55.433-105.813h-41.916c0-54.613-0.137-107.725 0.137-160.836 0-12.288 7.373-17.476 19.251-17.476 19.797 0 39.731-0.137 59.529-0.137h57.207c0 5.052-0.137 8.602 0 12.015 0.683 16.384 6.007 21.572 22.391 21.845h9.421c33.86 0 33.86 0 38.639-33.041 3.277-0.273 6.69-0.683 10.24-0.683 33.86-0.137 67.584-0.137 101.308 0 18.432 0 22.801 4.642 22.801 23.484 0.137 47.241 0.137 94.618 0 141.858 0.273 4.369-0.273 8.602-0.546 13.653zM436.77 662.63c-2.458 41.097 33.587 76.732 76.595 76.322 42.052-0.273 77.278-35.635 75.093-76.322h-151.689zM649.079 106.94h-273.067v28.126c0 27.443 0.273 55.023-0.137 82.466-0.137 12.151 5.052 16.794 17.067 16.794 79.872-0.273 159.471-0.137 239.343 0 9.011 0 16.657-1.365 16.794-12.561 0.137-37.82 0-75.639 0-114.825z" />
<glyph unicode="&#xe935;" glyph-name="icon-scuturi_metalice_auto" d="M566.067 651.844c-13.517 5.871-27.034 12.288-40.55 18.705l-12.971 6.144c-53.111-28.809-113.869-48.196-185.549-59.119l-0.137-14.336 1.365-35.772c-1.911-144.589 68.813-276.89 179.951-337.92 1.775-0.956 3.823-1.092 5.461-0.137 71.817 35.499 132.437 110.865 162.065 201.523 17.613 52.565 19.388 109.909 21.163 165.342l0.683 21.572c0 0.137 0 0.137 0 0.137-43.964 7.373-89.156 14.882-131.482 33.86zM794.624 721.749c-64.853 10.923-129.98 21.709-190.327 48.742-28.809 12.561-56.934 26.487-85.47 39.731-2.048 0.956-4.233 1.502-6.417 1.502 0 0-0.137 0-0.137 0-2.594 0-5.052-0.683-7.236-1.911-85.333-47.241-178.313-73.865-274.159-88.337-14.336-2.185-24.849-14.609-24.303-29.082 0.956-24.849 1.775-49.562 2.731-74.411-2.731-209.715 96.256-426.121 283.716-529.203 10.377-5.734 23.074-6.007 33.724-0.819 123.972 61.44 214.221 188.143 256.683 318.123 31.13 92.57 30.72 190.737 34.133 287.403 0.546 13.79-9.284 25.941-22.938 28.262zM733.73 595.183c-1.911-58.163-3.823-118.238-23.074-175.718-32.631-99.806-100.215-183.228-180.77-223.095-6.007-2.867-12.425-4.369-18.842-4.369-7.1 0-14.336 1.775-20.753 5.325-122.88 67.584-200.977 212.719-198.929 369.732l-1.775 48.742c-0.683 18.978 12.971 35.499 31.949 38.366 68.676 10.513 126.566 29.082 176.947 56.934 8.738 4.642 18.295 4.642 26.214 0.819l16.794-7.919c13.107-6.281 26.351-12.561 39.595-18.295 38.229-17.203 79.053-24.030 122.334-31.266 18.705-3.14 31.812-19.388 31.266-37.82l-0.956-21.436z" />
<glyph unicode="&#xe936;" glyph-name="icon-suporturi_biciclete" d="M895.659 131.516c-3.004 19.661-11.332 47.923-32.768 58.163-44.646 21.436-125.338 32.222-125.338 32.222l0.273-0.683c-13.926 25.941-28.126 51.473-42.052 77.141-12.015 22.255-29.764 32.768-54.886 32.495-10.513 0-20.89 0-31.403 0v43.145h157.833c9.967 0 18.159 8.055 18.159 18.159s-8.055 18.159-18.159 18.159h-62.805c45.466 15.019 78.507 57.344 78.507 107.861 0 62.805-51.2 114.005-114.005 114.005-7.373 0-14.473-0.819-21.436-2.185l-46.012 126.839-83.149 38.639c-9.011 4.369-19.797 0.273-24.030-8.738-4.233-9.148-0.273-19.934 8.875-24.030l69.495-32.358 11.332-31.266h-186.231l-7.236 13.38h22.938c9.967 0 18.159 8.055 18.159 18.159 0 9.967-8.055 18.159-18.159 18.159h-86.289c-9.967 0-18.159-8.055-18.159-18.159 0-9.967 8.055-18.159 18.159-18.159h22.665c0.273-0.819 0.273-1.502 0.683-2.321l15.701-29.218-42.871-58.436c-14.063 6.144-29.355 9.694-45.602 9.694-62.805 0-114.005-51.2-114.005-114.005 0-50.381 33.041-92.843 78.507-107.861h-62.942c-9.967 0-18.159-8.055-18.159-18.159s8.055-18.159 18.159-18.159h143.087v-43.418c-12.971 0-26.078 0-39.049 0-19.115 0-37.001-8.602-49.015-23.484-23.757-29.355-47.787-58.573-71.68-88.201-21.845-27.443-34.679-57.754-34.679-91.614 0-7.919 6.963-28.126 14.882-28.126h736.324c10.103-0.137 17.886 22.528 16.384 32.358zM651.947 511.351c2.731-7.373 9.694-11.878 17.067-11.878 2.048 0 4.096 0.41 6.144 1.092 9.421 3.413 14.336 13.79 10.786 23.211l-25.805 70.997c2.867 0.273 5.734 0.819 8.738 0.819 42.871 0 77.687-34.953 77.687-77.687s-34.816-77.687-77.687-77.687c-42.871 0-77.687 34.953-77.687 77.687 0 27.034 13.79 50.79 34.816 64.717l25.941-71.27zM554.735 662.494l-77.961-110.182-59.392 110.182h137.353zM385.434 645.427l58.846-109.363h-54.34c-4.233 26.214-17.34 49.289-36.181 66.219l31.676 43.145zM332.459 573.201c10.103-9.967 17.34-22.801 20.753-37.137h-48.060l27.307 37.137zM200.158 517.905c0 42.871 34.816 77.687 77.687 77.687 8.192 0 15.838-1.638 23.211-3.959l-46.285-63.078c-4.096-5.461-4.642-12.834-1.638-18.978 3.14-6.144 9.284-9.967 16.247-9.967h83.831c-8.192-34.133-38.775-59.665-75.366-59.665-42.871 0.273-77.687 35.089-77.687 77.961zM390.076 499.746h84.651c0 0 0 0 0 0s0 0 0 0c0.137 0 0.41 0.137 0.546 0.137 2.731 0.137 5.461 0.683 7.919 2.048 0 0 0.137 0 0.137 0 2.458 1.229 4.369 3.14 5.871 5.188 0.137 0.137 0.273 0.137 0.41 0.273l108.407 153.054 15.838-43.554c-34.816-19.524-58.573-56.388-58.573-98.987 0-50.381 33.041-92.843 78.507-107.861h-319.761c39.458 13.38 69.222 47.65 76.049 89.702zM358.81 373.862h214.357v-43.145c-71.407-0.137-142.814-0.273-214.357-0.273v43.418zM304.742 158.413c-0.41-0.41-0.546-0.546-0.956-0.956-30.72 0-61.167-0.546-91.887 0-15.838 0.546-24.713 17.886-16.657 31.812 3.14 5.871 7.509 10.923 11.742 16.384 17.34 22.665 34.406 45.466 51.746 68.13 12.971 17.067 23.484 21.026 45.875 17.067v-132.437zM496.299 157.73h-135.851v133.53h135.851v-133.53zM677.478 157.184c-41.779-0.273-83.558 0-126.293 0v134.076c2.867 0.273 5.598 0.546 8.329 0.546 21.709 0 43.418-0.546 64.99 0.273 18.705 0.273 28.535-9.557 37.274-27.853 12.015-24.986 23.211-46.831 34.953-67.311 12.971-22.665 4.642-39.731-19.251-39.731z" />
<glyph unicode="&#xe937;" glyph-name="icon-suporturi_skiuri" d="M928.7 231.185c-3.413 21.299-12.288 52.019-35.772 63.215-48.333 23.074-135.851 34.816-135.851 34.816v-0.683c-15.155 27.989-30.174 55.706-45.602 83.831-12.971 24.030-32.358 35.499-59.529 35.089h-34.27v61.303c0 0.273 0 0.273 0 0.683l37.274-6.827c14.473-2.458 29.218-3.959 44.1-3.959 3.686 0 7.1 0 10.786 0.273 22.118 0.956 44.373 7.646 64.717 20.070l16.657 9.557c11.059 6.417 14.746 20.617 8.329 31.676-4.369 7.373-12.015 11.469-20.070 11.469-3.959 0-8.055-1.229-11.742-3.413l-16.657-9.557c-13.926-8.329-28.672-12.971-43.418-13.517-2.731 0-5.598-0.273-8.329-0.273-12.015 0-24.030 1.229-36.318 3.413l-84.105 15.428-109.090 19.661-281.668 51.473c-4.369 0.683-8.329 0.273-12.015-0.956-2.458-0.956-4.915-2.185-6.827-3.959-0.683-0.273-1.229-0.683-1.502-1.229-0.683-0.273-0.956-0.956-1.502-1.502-2.458-2.731-4.369-6.827-5.188-10.786-2.185-12.698 6.144-24.713 18.842-26.761l399.633-73.045c-0.683-2.458-1.229-4.915-1.229-7.646v-61.303c-77.278-0.683-154.965-0.683-232.653-0.683v49.289c0 2.731-0.273 5.598-1.229 7.646l90.931 23.484-108.817 19.661-148.275-37.683c-12.698-3.14-20.070-15.701-16.93-27.989 2.731-10.513 12.288-17.203 22.528-17.203 1.911 0 3.686 0 5.871 0.683l116.463 29.628v-47.514h-42.189c-20.617 0-40.414-9.284-53.248-25.259-25.941-32.085-51.746-63.488-77.687-95.846-24.030-29.901-37.956-62.805-37.956-99.533 0-8.602 7.646-30.447 16.384-30.447h799.539c10.786-0.273 19.115 24.439 17.613 35.226zM287.13 260.403c-0.683-0.683-0.683-0.956-1.229-1.229-33.314 0-66.219-0.683-99.533 0-17.203 0.683-26.761 19.388-18.159 34.543 3.413 6.417 8.329 12.015 12.698 17.886 19.115 24.713 37.547 49.289 56.388 74.001 13.926 18.432 25.259 22.801 49.971 18.432v-143.633zM494.797 259.447h-147.319v145.135h147.319v-145.135zM691.678 258.901c-45.329-0.273-90.658 0-137.079 0v145.681c3.14 0.273 6.144 0.273 8.875 0.273 23.757 0 47.104-0.273 70.588 0.273 20.343 0.273 31.13-10.513 40.687-30.174 12.971-27.17 24.986-50.79 37.956-73.045 13.79-24.576 4.915-43.008-21.026-43.008zM770.867 664.132l-11.059-15.974c-13.244-19.115-30.857-34.816-50.517-44.919-16.384-8.329-33.587-14.746-51.473-19.388l-43.145-11.059-108.817 20.070 140.493 35.772c14.473 3.686 28.672 9.284 41.916 15.974 12.971 6.417 24.713 16.93 33.587 30.174l11.059 15.701c7.373 10.513 21.572 13.244 32.085 5.871 10.513-7.646 13.244-21.845 5.871-32.222z" />
<glyph unicode="&#xe938;" glyph-name="icon-tavite_portbagaj" d="M736.734 413.867c-5.325 3.277-9.148 8.602-10.377 14.609l-23.893 157.559c0 0-3.959-0.273-4.233-0.273-63.351-4.642-125.884-7.509-185.822-8.875-60.621 1.229-123.153 4.233-186.505 8.875-2.731 0.273-4.779-0.819-5.188-1.229l-22.801-155.238c-1.638-7.1-5.325-12.015-10.65-15.428-7.1-4.506-31.949-19.934-54.886-27.17-3.14-11.878-6.554-28.262-11.196-48.333 31.266-10.24 135.987-40.141 284.262-40.141h13.244c149.641 0 255.044 30.447 283.716 39.731l0.41 0.273c-2.867 12.151-7.373 32.222-9.967 49.015-24.166 6.827-49.015 22.118-56.115 26.624zM219.955 338.773l0.273-0.273c0 0 0 0 0 0-0.137 0.137-0.137 0.273-0.273 0.273zM922.556 403.217c-1.092 9.284-7.236 17.34-15.974 20.89-27.853 11.742-59.255 36.454-71.407 46.558-2.731 2.185-4.642 5.461-5.188 8.875l-32.905 185.412c-2.321 13.244-15.019 22.665-28.262 21.436-98.714-9.421-184.593-14.063-256.819-15.974-72.226 2.048-158.106 6.554-256.819 15.974-13.517 1.365-26.078-8.192-28.399-21.436l-32.768-185.412c-0.683-3.55-2.594-6.69-5.188-8.875-12.151-10.103-43.554-34.816-71.407-46.558-8.875-3.686-15.019-11.742-16.111-20.89-3.686-31.403-10.65-70.724-14.336-91.341-1.365-6.963 0.273-13.79 4.096-19.251 0 0 2.048-3.686 3.686-4.233 2.185-2.048 4.779-3.686 7.782-5.052 40.277-17.067 189.645-73.728 400.316-73.728 3.004 0 6.007 0.137 9.011 0.137 3.14 0 6.144-0.137 9.284-0.137 210.534 0 360.038 56.525 400.316 73.728 2.867 1.365 5.461 3.004 7.646 5.052 1.502 0.546 3.686 4.233 3.686 4.233 3.686 5.461 5.461 12.288 4.096 19.251-3.823 20.617-10.65 59.802-14.336 91.341zM826.846 319.113c-1.502-1.911-3.686-4.233-6.554-5.871-2.458-1.638-5.188-3.004-8.329-4.096-30.037-9.83-139.127-41.37-293.274-41.37h-13.244c-154.146 0-263.236 31.539-293.137 41.233-3.14 1.092-6.007 2.321-8.465 3.959-2.594 1.502-5.052 3.55-7.236 6.554-5.325 5.871-7.646 14.746-5.461 23.211 4.779 20.207 8.192 36.727 9.967 48.742 1.775 10.923 10.103 19.934 21.982 23.62 17.476 5.598 37.683 17.613 45.466 22.391l23.074 153.873c3.55 15.701 18.978 25.805 36.454 24.576 62.805-4.642 124.791-7.509 184.32-8.738 58.846 1.229 120.832 4.233 183.637 8.738 16.93 0.956 32.768-8.738 36.181-23.484l23.347-154.692c8.055-4.915 27.989-16.794 45.466-22.391 11.742-3.686 20.070-12.698 21.845-23.62 2.731-17.613 7.919-40.141 10.103-49.015 1.911-8.192-0.273-16.794-6.144-23.62z" />
<glyph unicode="&#xe939;" glyph-name="icon-transport_copii" d="M760.491 257.263c-5.461 59.392-46.967 109.5-51.883 121.378-5.052 11.878 28.535 222.959 14.746 291.226-14.063 70.042-63.488 141.858-211.354 141.858s-197.291-71.68-211.354-141.858c-13.653-68.267 19.797-279.347 14.746-291.226s-46.421-61.986-51.883-121.378c-5.461-59.392 45.329-173.124 248.491-173.124 203.162 0.137 254.089 113.732 248.491 173.124zM512 741.82c40.277 0 72.909-32.631 72.909-72.909s-32.631-72.909-72.909-72.909c-40.277 0-72.909 32.631-72.909 72.909s32.631 72.909 72.909 72.909zM489.609 343.006v0l-39.322-71.27 32.085-68.13c7.509-17.203-0.273-36.727-17.476-43.554l-1.092-0.41c-17.067-6.827-37.274 1.775-44.919 18.842l-41.233 94.208c-1.092 2.185-2.048 4.369-2.867 6.69-2.594 7.373-2.321 15.019 0 21.709 1.092 3.413 2.594 6.554 4.642 9.694l46.558 81.92v62.123l-25.805-33.178c-10.24-13.244-29.491-15.565-42.598-5.325-13.244 10.24-15.565 29.491-5.325 42.598l65.809 84.651 71.543-142.404v-58.163zM512 456.192l-62.805 124.928c3.55 2.594 8.602 5.188 15.428 6.963 13.926-8.192 30.037-12.834 47.241-12.834s33.451 4.642 47.241 12.834c6.827-1.775 11.878-4.506 15.428-6.963l-62.532-124.928zM666.283 416.188c-13.107-10.24-32.358-7.919-42.598 5.325l-25.805 33.314v-62.259l46.558-81.92c2.048-3.14 3.55-6.281 4.642-9.694 2.321-6.827 2.458-14.473 0-21.709-0.819-2.321-1.638-4.506-2.867-6.69l-41.233-94.208c-7.509-17.067-27.716-25.668-44.919-18.842l-1.092 0.41c-17.067 6.827-24.986 26.351-17.476 43.554l32.085 68.13-39.322 71.27v58.027l71.543 142.404 65.809-84.651c10.377-12.971 7.919-32.222-5.325-42.462z" />
</font>
</defs>
</svg>
